rfriendsでラジオ録音

ラジコ、らじるらじる、タイムフリーのラジオ番組を録音

最新の状況


rfriends の最新版は : 2.6.0z (2017/12/28)


ファイル転送機能にバグがありました。また、申し訳ありませんが、mp3変換機能は低負荷でできるようになるまで利用不可とします。 マニュアルは古いままです。

 NHKの番組をラジコとらじるらじるで録音し比較してみました

ラジコ:47 kb/s、らじるらじる:48 kb/s

ビットレートが違っていますね。


ラジコで録音
_ok022_JOAK-FM_ゆうがたパラダイス_三森すずことアニソンパラダイス_20171003_1640_1800.m4a
28,906,423 bytes

Duration: 01:20:50.01, start: 0.000000, bitrate: 47 kb/s
Stream #0:0(und): Audio: aac (HE-AAC) (mp4a / 0x6134706D), 48000 Hz, stereo, fltp, 46 kb/s (default)

 

らじるらじるで録音
r3_ゆうがたパラダイス_三森すずことアニソンパラダイス_20171003_1640_1800.m4a
29,597,905 bytes

Duration: 01:20:50.01, start: 0.000000, bitrate: 48 kb/s
Stream #0:0(und): Audio: aac (HE-AAC) (mp4a / 0x6134706D), 48000 Hz, stereo, fltp, 47 kb/s (default)